Скачать торрент Мaшa и Мeдвeдь - 43 серия - Героями не рождаются (Олег Кузовков, Олег Ужинов, Денис Червяцов) [2014, мультсериал] бесплатно
Мaшa и Мeдвeдь - 43 серия - Героями не рождаются (Олег Кузовков, Олег Ужинов, Денис Червяцов) [2014, мультсериал]

Маша и медведь - Героями не рождаются-Страна: Россия

Жанр: мультфильм, короткометражка, комедия, семейный

Год выпуска: 2014

Продолжительность: 00:06:55

Режиссеры: Олег Кузовков, Олег Ужинов, Денис Червяцов...

Роли озвучивали: Алина Кукушкина, Борис Кутневич, Эдуард Назаров

Описание: Захватывающие и удивительные, увлекательные и необычные приключения девочки Маши продолжаются. В новой истории под названием «Героями не рождаются» непоседливая девочка, искренне любящая своего Мишку, в который раз доказывает, что, несмотря на вредный и далеко не идеальный характер, она понимает и видит тонкую грань между добром и злом, плохим и хорошим... Но о каком геройстве фантазерки Маши может идти речь! И все же… Как выяснится, чтобы быть героем, им не надо родиться, им можно стать. Ведь жизнь такая непредсказуемая!- Премьера (РФ) - 7 января 2009 года

Все раздачи мультсериала--Качество: WEB-DLRip (WEB-DL 720p)

Формат: AVI

Видео: 720x400 (1.80:1), 25 fps, XviD build 65 ~1999 kbps avg, 0.28 bit/pixel

Аудио: 48 kHz, AC3, 2 ch, 192.00 kbps

MediaInfo General

Complete name : Masha.i.medved_43_Geroyami.ne.rozhdautsya_2014.avi

Format : AVI

Format/Info : Audio Video Interleave

File size : 109 MiB

Duration : 6mn 55s

Overall bit rate : 2 201 Kbps

Writing application : VirtualDubMod 1.5.10.3 |

Writing library : VirtualDubMod build 2550/release

Video

ID : 0

Format : MPEG-4 Visual

Format profile : Advanced Simple@L5

Format settings, BVOP : 1

Format settings, QPel : No

Format settings, GMC : No warppoints

Format settings, Matrix : Custom

Codec ID : XVID

Codec ID/Hint : XviD

Duration : 6mn 55s

Bit rate : 2 000 Kbps

Width : 720 pixels

Height : 400 pixels

Display aspect ratio : 16:9

Frame rate : 25.000 fps

Color space : YUV

Chroma subsampling : 4:2:0

Bit depth : 8 bits

Scan type : Progressive

Compression mode : Lossy

Bits/(Pixel*Frame) : 0.278

Stream size : 99.0 MiB (91%)

Writing library : XviD 65

Audio

ID : 1

Format : AC-3

Format/Info : Audio Coding 3

Mode extension : CM (complete main)

Format settings, Endianness : Big

Codec ID : 2000

Duration : 6mn 55s

Bit rate mode : Constant

Bit rate : 192 Kbps

Channel count : 2 channels

Channel positions : Front: L R

Sampling rate : 48.0 KHz

Bit depth : 16 bits

Compression mode : Lossy

Stream size : 9.51 MiB (9%)

Alignment : Split accross interleaves

Interleave, duration : 40 ms (1.00 video frame)

Interleave, preload duration : 500 ms Скриншоты Релиз от группы
Поиск торрентов, пожалуйста подождите!
Добавлено 8-08-2014, 10:24 Просмотров: 3312