Скачать торрент Феи: Загадка Пиратского Острова / The Pirate Fairy (Пегги Холмс / Peggy Holmes) [2014, Мультфильм, Фэнтези, Детский, Приключения, HDRip] Dub бесплатно
Феи: Загадка Пиратского Острова / The Pirate Fairy
Страна: США
Жанр: Мультфильм, Фэнтези, Детский, Приключения
Продолжительность: 01:18:05
Год выпуска: 2014
Перевод: Профессиональный (дублированный) Лицензия
Оригинал: английский
Русские субтитры: нет
Режиссёр: Пегги Холмс / Peggy Holmes
Роли озвучивали: Кристина Хендрикс, Мэй Уитман, Том Хиддлстон, Памела Адлон, Анджела Бартис, Меган Хилти, Люси Лью, Рэйвен, Джим Каммингс, Кевин Майкл Ричардсон
Описание: Феи — это маленькие существа природы, обладают особыми, волшебными способностями. Одной из таких есть, Динь — Динь, она родилась из первого смеха младенца с зонтиком одуванчика, они прилетели в Долину Фей, на волшебный остров Нетландия. Там юное создание перепробовала много чего, пока не узнала, что ее предназначение быть мастерицей. Динь — Динь, постоянно искала приключения, на свою голову. Ее подруги Иридесса — фея света, Розетта — садовая фея, фея всех животных и птиц — Фауна, также фея воды — Серебрянка, спасают горе подругу от нелепых ситуаций. Они помогают Динь — динь, разобраться во всем. И у фей новое приключение, все они оказались далеко от долины, на большом острове, раньше там никому из фей не доводилось быть.
Доп. информация:
Семпл: http://multi-up.com/971888
Качество: HDRip [рип с BDRip 720p]
Формат: AVI
Видео: XVID, 720x400 (16:9), 23,976 кадра/сек, 2113 Кбит/сек
Аудио : AC-3, 48,0 КГц (6 каналов), 384 Кбит/сек
Субтитры: Отсутствуют Подробные технические данные Формат : AVI
Формат/Информация : Audio Video Interleave
Размер файла : 1,37 Гбайт
Продолжительность : 1 ч. 18 м.
Общий поток : 2506 Кбит/сек
Программа кодирования : VirtualDubMod 1.5.10.3 | www.virtualdub-fr.org || (build 2550/release)
Библиотека кодирования : VirtualDubMod build 2550/release
Видео
Идентификатор : 0
Формат : MPEG-4 Visual
Профиль формата : Advanced Simple@L5
Параметр BVOP формата : 2
Параметр QPel формата : Нет
Параметр GMC формата : Без точки перехода
Параметр матрицы формата : Выборочная
Идентификатор кодека : XVID
Идентификатор кодека/Подсказка : XviD
Продолжительность : 1 ч. 18 м.
Битрейт : 2113 Кбит/сек
Ширина : 720 пикселей
Высота : 400 пикселей
Соотношение сторон : 16:9
Частота кадров : 23,976 кадра/сек
Цветовое пространство : YUV
Субдискретизация насыщенности : 4:2:0
Битовая глубина : 8 бит
Тип развёртки : Прогрессивная
Метод сжатия : С потерями
Бит/(Пиксели*Кадры) : 0.306
Размер потока : 1,15 Гбайт (84%)
Библиотека кодирования : XviD 1.2.1 (UTC 2008-12-04)
Аудио
Идентификатор : 1
Формат : AC-3
Формат/Информация : Audio Coding 3
Расширение режима : CM (complete main)
Параметр Endianness формата : Big
Идентификатор кодека : 2000
Продолжительность : 1 ч. 18 м.
Вид битрейта : Постоянный
Битрейт : 384 Кбит/сек
Каналы : 6 каналов
Расположение каналов : Front: L C R, Side: L R, LFE
Частота : 48,0 КГц
Битовая глубина : 16 бит
Метод сжатия : С потерями
Задержка видео : 24 мс.
Размер потока : 214 Мбайт (15%)
Выравнивание : Разделение по промежуткам
Продолжительность промежутка : 42 мс. (1,00 видеокадр)
Время предзагрузки промежутка : 500 мс. Скриншоты 06.05.2014, замена звука с лайн на лицензию
Поиск торрентов, пожалуйста подождите!
Добавлено 16-07-2014, 13:14 Просмотров: