Скачать торрент Паранормальное явление: Метка Дьявола / Paranormal Activity: The Marked Ones (2014) HDRip | Лицензия бесплатно
Паранормальное Явление: Метка Дьявола / Paranormal Activity: The Marked Ones
Страна: США
Жанр: Ужасы, Триллер
Год выпуска: 2014
Продолжительность: 01:24:12
Перевод: Профессиональный (дублированный) лицензия BD CEE
Cубтитры: нет
Режиссер: Кристофер Б. Лэндон / Christopher B. Landon
В ролях: Эндрю Джейкобс, Хорхе Диаз, Габриэль Уолш, Рени Виктор, Ноеми Гонзалез, Дэвид Сауседо, Глория Сандовал, Ричард Кебрал, Карлос Праттс, Хуан Васкес
Описание: Действие фильма происходит в 2012 году в Окснарде, штат Калифорния. Выпускник школы Джесси живёт со своим отцом и бабушкой, а в квартире под ними живёт Анна, которую все считают ведьмой. Однажды Анну находят мёртвой, и полиция подозревает Оскара, бывшего одноклассника Джесси. Джесси вместе с друзьями решает осмотреть квартиру Анны. Там он находит следы проведения обрядов чёрной магии и фотографию Джесси. Среди найденного также оказываются несколько видеокассет, включая детские записи Кэти и Кристи из третьего фильма, и книги заклинаний, одна из которых позволяет создавать порталы в богомерзкие места. На следующее утро Джесси обнаруживает у себя на руке странный укус. Чуть позже, когда Джесси с его другом Гектором вечером возвращаются домой, на них нападают бандиты.Бандиты начинают избивать Джесси, но тот отбрасывает их от себя с нечеловеческой силой. Джесси и Гектор отправляются к Марисол, их общей подруге, чтобы поведать о случившемся, но во время разговора выясняется, что Джесси об этом ничего не помнит. После этого с Джесси начинают происходить необъяснимые вещи, и он понимает, что обладает сверхъестественными способностями.На вечеринке Джесси и Гектор знакомятся с Пенелопой, которую Джесси отводит в квартиру Анны, чтобы заняться с ней сексом. Пенелопа случайно открывает потайную дверь в подвал, из которого появляется Оскар и тянет Пенелопу вниз. Пенелопа в ужасе убегает, а Джесси внезапно сталкивается с Оскаром. Джесси замечает, что у Оскара чёрные белки в глазах, а также укус на руке, такой же, как и у него самого.
Сэмпл: http://sendfile.su/974039
Качество видео: HDRip
Формат видео: AVI
Видео: 720x400 (1.80:1), 23.976 fps, XviD build 64 ~1935 kbps avg, 0.28 bit/pixel
Аудио: 48 kHz, AC3 Dolby Digital, 3/2 (L,C,R,l,r) + LFE ch, ~384 kbps MediaInfo Общее
Полное имя : F:BD torrentmytorrentsupParanormalnoe.Yavlenie.Metka.Dyavola.2013.HDRip.avi
Формат : AVI
Формат/Информация : Audio Video Interleave
Размер файла : 1,37 Гбайт
Продолжительность : 1 ч. 24 м.
Общий поток : 2329 Кбит/сек
Программа кодирования : VirtualDubMod 1.5.10.3 | www.virtualdub-fr.org || (build 2550/release)
Библиотека кодирования : VirtualDubMod build 2550/release
Видео
Идентификатор : 0
Формат : MPEG-4 Visual
Профиль формата : Advanced Simple@L5
Параметр BVOP формата : 2
Параметр QPel формата : Нет
Параметр GMC формата : Без точки перехода
Параметр матрицы формата : Выборочная
Идентификатор кодека : XVID
Идентификатор кодека/Подсказка : XviD
Продолжительность : 1 ч. 24 м.
Битрейт : 1936 Кбит/сек
Ширина : 720 пикселей
Высота : 400 пикселей
Соотношение сторон : 16:9
Частота кадров : 23,976 кадра/сек
Цветовое пространство : YUV
Субдискретизация насыщенности : 4:2:0
Битовая глубина : 8 бит
Тип развёртки : Прогрессивная
Метод сжатия : С потерями
Бит/(Пиксели*Кадры) : 0.280
Размер потока : 1,14 Гбайт (83%)
Библиотека кодирования : XviD 64
Аудио
Идентификатор : 1
Формат : AC-3
Формат/Информация : Audio Coding 3
Расширение режима : CM (complete main)
Параметр Endianness формата : Big
Идентификатор кодека : 2000
Продолжительность : 1 ч. 24 м.
Вид битрейта : Постоянный
Битрейт : 384 Кбит/сек
Каналы : 6 каналов
Расположение каналов : Front: L C R, Side: L R, LFE
Частота : 48,0 КГц
Битовая глубина : 16 бит
Метод сжатия : С потерями
Размер потока : 231 Мбайт (16%)
Выравнивание : Разделение по промежуткам
Продолжительность промежутка : 42 мс. (1,00 видеокадр)
Время предзагрузки промежутка : 500 мс. Скриншот c названием фильма Скриншоты
Поиск торрентов, пожалуйста подождите!
Добавлено 16-07-2014, 13:14 Просмотров: