Скачать торрент Другая женщина / The Other Woman (2014) BDRip 720p бесплатно
Другая женщина / The Other Woman (2014) BDRip 720p

Информация о фильме

Название: Другая женщина

Оригинальное название: The Other Woman

Год выхода: 2014

Жанр: мелодрама, комедия

Режиссер: Ник Кассаветис

В ролях: Кэмерон Диаз, Лесли Манн, Кейт Аптон, Николай Костер-Вальдау, Дон Джонсон, Тейлор Кинни, Ники Минаж, Дэвид Торнтон, Виктор Круз

О фильме: Любовная связь с женатым мужчиной — это, конечно, не лучший вариант, но вполне допустимый. Гораздо хуже, если у него помимо тебя ещё несколько любовниц. Будучи не в силах смириться с таким положением дел, обманутая женщина жаждет крови и вынашивает план мести. Ради достижения своей цели она объединяется с женой изменника, и этот союз униженных и оскорблённых оказывается для казановы пострашнее атомной войны.

Страна: США

Производство: 20th Century Fox Film Corporation, LBI Productions

Продолжительность: 01:49:07

Перевод: Профессиональный (дублированный) [iTunes]

Субтитры: Английские

Дополнительно: Сохранены оригинальные чаптеры как на Blu-Ray

Файл

Качество: BDRip 720p

Видео: 1280x534 (2.40:1) at 23.976 fps, AVC at 2896 kbps avg, 0.177 bit/pixel

Аудио 1: Русский / АС3, 6 ch, 384 Кбит/с / iTunes

Аудио 2: Английский / АС3, 6 ch, 640 Кбит/с / Original

Скриншоты

MIx264 [info]: frame I:1585 Avg QP:15.68 size:103370

x264 [info]: frame P:36484 Avg QP:18.63 size: 30566

x264 [info]: frame B:118912 Avg QP:20.99 size: 9169

-------------------------

General

Unique ID : 197295247354000518487967376935994501660 (0x946DAEB6C69342EDA3222F6920D7AA1C)

Complete name : H:The.Other.Woman.2014.BD.720.Hot-Film.mkv

Format : Matroska

Format version : Version 2

File size : 2.99 GiB

Duration : 01:49:07

Overall bit rate : 3 921 Kbps

Encoded date : UTC 2014-07-19 07:31:32

Writing application : mkvmerge v5.8.0 ('No Sleep / Pillow') built on Sep 2 2012 15:37:04

Writing library : libebml v1.2.3 + libmatroska v1.3.0

Attachment : Yes

Video

ID : 1

Format : AVC

Format/Info : Advanced Video Codec

Format profile : High@L4.1

Format settings, CABAC : Yes

Format settings, ReFrames : 9 frames

Codec ID : V_MPEG4/ISO/AVC

Duration : 1h 49mn

Bit rate : 2 896 Kbps

Width : 1 280 pixels

Height : 534 pixels

Display aspect ratio : 2.40:1

Frame rate mode : Constant

Frame rate : 23.976 fps

Color space : YUV

Chroma subsampling : 4:2:0

Bit depth : 8 bits

Scan type : Progressive

Bits/(Pixel*Frame) : 0.177

Stream size : 2.15 GiB (72%)

Writing library : x264 core 142 r2431 ac76440

Encoding settings : cabac=1 / ref=9 / deblock=1:-3:-3 / analyse=0x3:0x133 / me=umh / subme=11 / psy=1 / psy_rd=1.00:0.10 / mixed_ref=1 / me_range=32 / chroma_me=1 / trellis=2 / 8x8dct=1 / cqm=0 / deadzone= 21,11 / fast_pskip=0 / chroma_qp_offset=-3 / threads=12 / lookahead_threads=2 / sliced_threads=0 / nr=0 / decimate=0 / interlaced=0 / bluray_compat=0 / constrained_intra=0 / bframes=7 / b_pyramid=2 / b_adapt=2 / b_bias=0 / direct=3 / weightb=1 / open_gop=0 / weightp=2 / keyint=240 / keyint_min=23 / scenecut=40 / intra_refresh=0 / rc_lookahead=40 / rc=2pass / mbtree=0 / bitrate=2896 / ratetol=1.0 / qcomp=0.60 / qpmin=0 / qpmax=69 / qpstep=4 / cplxblur=20.0 / qblur=0.5 / vbv_maxrate=50000 / vbv_bufsize=62500 / nal_hrd=none / filler=0 / ip_ratio=1.40 / pb_ratio=1.30 / aq=1:0.80

Language : English

Default : Yes

Forced : No

Audio #1

ID : 2

Format : AC-3

Format/Info : Audio Coding 3

Mode extension : CM (complete main)

Format settings, Endianness : Big

Codec ID : A_AC3

Duration : 1h 49mn

Bit rate mode : Constant

Bit rate : 384 Kbps

Channel(s) : 6 channels

Channel positions : Front: L C R, Side: L R, LFE

Sampling rate : 48.0 KHz

Bit depth : 16 bits

Compression mode : Lossy

Stream size : 300 MiB (10%)

Title : iTunes

Language : Russian

Default : Yes

Forced : No

Audio #2

ID : 3

Format : AC-3

Format/Info : Audio Coding 3

Mode extension : CM (complete main)

Format settings, Endianness : Big

Codec ID : A_AC3

Duration : 1h 49mn

Bit rate mode : Constant

Bit rate : 640 Kbps

Channel(s) : 6 channels

Channel positions : Front: L C R, Side: L R, LFE

Sampling rate : 48.0 KHz

Bit depth : 16 bits

Compression mode : Lossy

Stream size : 500 MiB (16%)

Title : Original

Language : English

Default : No

Forced : No

Text

ID : 4

Format : UTF-8

Codec ID : S_TEXT/UTF8

Codec ID/Info : UTF-8 Plain Text

Title : Full

Language : English

Default : No

Forced : No

Menu

00:00:00.000 : :Chapter 01

00:03:06.186 : :Chapter 02

00:05:45.261 : :Chapter 03

00:07:21.274 : :Chapter 04

00:10:21.370 : :Chapter 05

00:14:17.231 : :Chapter 06

00:16:45.421 : :Chapter 07

00:19:47.686 : :Chapter 08

00:21:18.443 : :Chapter 09

00:24:01.648 : :Chapter 10

00:28:16.861 : :Chapter 11

00:32:34.035 : :Chapter 12

00:35:41.180 : :Chapter 13

00:39:06.260 : :Chapter 14

00:41:54.803 : :Chapter 15

00:44:53.315 : :Chapter 16

00:48:33.368 : :Chapter 17

00:52:33.191 : :Chapter 18

00:55:54.976 : :Chapter 19

00:58:20.788 : :Chapter 20

01:00:20.908 : :Chapter 21

01:03:18.711 : :Chapter 22

01:08:35.528 : :Chapter 23

01:11:03.550 : :Chapter 24

01:14:28.922 : :Chapter 25

01:17:21.053 : :Chapter 26

01:22:13.136 : :Chapter 27

01:26:42.030 : :Chapter 28

01:30:03.523 : :Chapter 29

01:35:01.696 : :Chapter 30

01:42:25.430 : :Chapter 31

01:44:27.469 : :Chapter 32

Релиз от:
Поиск торрентов, пожалуйста подождите!
Добавлено 8-08-2014, 09:03 Просмотров: 28771